RLC-410 Automatic encoder selection failed?



  • I set up a RLC-410 using the recommended rtsp URL etc etc and I set all of my settings to copy. Below is the command I typed out to try it on the CLI:

    [email protected]::#/node_modules/ffmpeg-static/bin/linux/x64/ffmpeg -analyzeduration 100000000 -probesize 100000000 -rtsp_transport tcp -hwaccel auto -i "rtsp://admin:[email protected]/h264Preview_01_main" -preset ultrafast15 -c:v copy -c:s mov_text -r 2 -f hls -hls_time 2 -hls_list_size 3 -start_number 0 -hls_allow_cache 0 -hls_flags +delete_segments+omit_endlist "/dev/shm/streams/abs/s.m3u" -map 0 -update 1 -r 1 "/dev/shm/streams/abs/s.jpg" -y

    ffmpeg version 4.1-static https://johnvansickle.com/ffmpeg/ Copyright (c) 2000-2018 the FFmpeg developers
    built with gcc 6.3.0 (Debian 6.3.0-18+deb9u1) 20170516
    configuration: --enable-gpl --enable-version3 --enable-static --disable-debug --disable-ffplay --disable-indev=sndio --disable-outdev=sndio --cc=gcc-6 --enable-fontconfig --enable-frei0r --enable-gnutls --enable-gray --enable-libaom --enable-libfribidi --enable-libass --enable-libvmaf --enable-libfreetype --enable-libmp3lame --enable-libopencore-amrnb --enable-libopencore-amrwb --enable-libopenjpeg --enable-librubberband --enable-libsoxr --enable-libspeex --enable-libvorbis --enable-libopus --enable-libtheora --enable-libvidstab --enable-libvo-amrwbenc --enable-libvpx --enable-libwebp --enable-libx264 --enable-libx265 --enable-libxml2 --enable-libxvid --enable-libzimg
    libavutil 56. 22.100 / 56. 22.100
    libavcodec 58. 35.100 / 58. 35.100
    libavformat 58. 20.100 / 58. 20.100
    libavdevice 58. 5.100 / 58. 5.100
    libavfilter 7. 40.101 / 7. 40.101
    libswscale 5. 3.100 / 5. 3.100
    libswresample 3. 3.100 / 3. 3.100
    libpostproc 55. 3.100 / 55. 3.100
    Input #0, rtsp, from 'rtsp://admin:[email protected]/h264Preview_01_main':
    Metadata:
    title : Session streamed by "preview"
    comment : h264Preview_01_main
    Duration: N/A, start: 0.000000, bitrate: N/A
    Stream #0:0: Video: h264 (Main), yuv420p(progressive), 1920x1072, 29.58 tbr, 90k tbn, 180k tbc
    Stream #0:1: Audio: aac (LC), 16000 Hz, mono, fltp

    Automatic encoder selection failed for output stream #1:1. Default encoder for format image2 (codec none) is probably disabled. Please choose an encoder manually.
    Error selecting an encoder for stream 1:1

    Thank you for any help/advice.


 

Looks like your connection to Shinobi Forum was lost, please wait while we try to reconnect.