Help configuring cameras



  • Hello everyone,

    I have two ip cameras: one foscam 8908 and one from Revotech. I can't access the streams from VLC, but I'm unable to make Shinobi to properly access and display anything. These are the error reports that I see:

    --
    ffprobe version 3.4 Copyright © 2007-2017 the FFmpeg developers built with gcc 6.4.0
    (Alpine 6.4.0) configuration: --prefix=/usr --enable-avresample --enable-avfilter --enable-gnutls
    –enable-gpl --enable-libmp3lame --enable-librtmp --enable-libvorbis --enable-libvpx --enable-libxvid
    –enable-libx264 --enable-libx265 --enable-libtheora --enable-libv4l2 --enable-postproc
    –enable-pic --enable-pthreads --enable-shared --enable-libxcb --disable-stripping --disable-static
    –enable-vaapi --enable-vdpau --enable-libopus --disable-asm --disable-debug libavutil 55. 78.100
    / 55. 78.100 libavcodec 57.107.100 / 57.107.100 libavformat 57. 83.100 / 57. 83.100 libavdevice 57. 10.100 / 57. 10.100 libavfilter 6.107.100 / 6.107.100 libavresample 3. 7. 0 / 3. 7. 0 libswscale 4. 8.100 / 4. 8.100 libswresample 2. 9.100 / 2. 9.100 libpostproc 54. 7.100 / 54. 7.100
    [h264 @ 0x74e0e450] Overread VUI by 8 bits [rtsp @ 0x556dc840] Failed to open codec in
    davformat_find_stream_info [NULL @ 0x74e0e450] Overread VUI by 8 bits [h264 @
    0x74e0e450] Overread VUI by 8 bits [rtsp @ 0x556dc840] Could not find codec parameters for
    stream 0 (Video: h264 (High), none(progressive)): unspecified size Consider increasing the value
    for the ‘analyzeduration’ and ‘probesize’ options Input #0, rtsp, from ‘rtsp://192.168.1.32:5544/live0.264’:
    Metadata: title : Session Streamed by LIBZRTSP comment : live0.264 Duration: N/A,
    start: 0.024250, bitrate: N/A Stream #0:0: Video: h264 (High), none(progressive), 90k tbr, 90k
    tbn, 180k tbc Stream #0:1: Audio: pcm_mulaw, 8000 Hz, 1 channels, s16, 64 kb/s [h264
    @ 0x74d48aa0] Overread VUI by 8 bits Could not open codec for input stream 0
    END

    the funny thing is that with one of the cameras, I do see a thumbnail of what the camera is recording to the left of Shinobi, which means Shinobi is accessing the camera! It is just too bad that it will not access the stream but rather a static image?

    thanks


 

Looks like your connection to Shinobi Forum was lost, please wait while we try to reconnect.