Two Onvif cameras not working on Shinobi (good on ZM)



  • Good evening,

    I have 4 IP cameras controlled by Zoneminer on an old Core 2 Duo 2.1Ghz / 2GB ram notebook, all works fine but Zoneminder is a heavy piece of software and I would like to migrate to Shinobi due to the "copy" option.
    Problem is, two of my generic cameras refusing to work with it and all Shinobi is showing me is a black screen.
    One of the RTSP address is

    rtsp://user:pa[email protected]:80/ch0_0.264

    and this is the probe result:

    ffprobe version 3.4.2-2 Copyright (c) 2007-2018 the FFmpeg developers built with gcc 7 (Ubuntu 7.3.0-16ubuntu2) configuration: --prefix=/usr --extra-version=2 --toolchain=hardened --libdir=/usr/lib/x86_64-linux-gnu --incdir=/usr/include/x86_64-linux-gnu --enable-gpl --disable-stripping --enable-avresample --enable-avisynth --enable-gnutls --enable-ladspa --enable-libass --enable-libbluray --enable-libbs2b --enable-libcaca --enable-libcdio --enable-libflite --enable-libfontconfig --enable-libfreetype --enable-libfribidi --enable-libgme --enable-libgsm --enable-libmp3lame --enable-libmysofa --enable-libopenjpeg --enable-libopenmpt --enable-libopus --enable-libpulse --enable-librubberband --enable-librsvg --enable-libshine --enable-libsnappy --enable-libsoxr --enable-libspeex --enable-libssh --enable-libtheora --enable-libtwolame --enable-libvorbis --enable-libvpx --enable-libwavpack --enable-libwebp --enable-libx265 --enable-libxml2 --enable-libxvid --enable-libzmq --enable-libzvbi --enable-omx --enable-openal --enable-opengl --enable-sdl2 --enable-libdc1394 --enable-libdrm --enable-libiec61883 --enable-chromaprint --enable-frei0r --enable-libopencv --enable-libx264 --enable-shared libavutil 55. 78.100 / 55. 78.100 libavcodec 57.107.100 / 57.107.100 libavformat 57. 83.100 / 57. 83.100 libavdevice 57. 10.100 / 57. 10.100 libavfilter 6.107.100 / 6.107.100 libavresample 3. 7. 0 / 3. 7. 0 libswscale 4. 8.100 / 4. 8.100 libswresample 2. 9.100 / 2. 9.100 libpostproc 54. 7.100 / 54. 7.100 Input #0, rtsp, from 'rtsp://user:[email protected]:80/ch0_0.264': Metadata: title : ch0_0.264 comment : minisdp Duration: N/A, start: 0.000000, bitrate: N/A Stream #0:0: Video: h264 (High), yuvj420p(pc, bt709, progressive), 1280x960, 25 tbr, 90k tbn, 180k tbc Stream #0:1: Audio: pcm_alaw, 8000 Hz, 1 channels, s16, 64 kb/s

    Is there a way to diagnose the issue like the error log in Zoneminder?

    Thanks,

    F.


 

Looks like your connection to Shinobi Forum was lost, please wait while we try to reconnect.